Мои Ночи Прекраснее Ваших Дней скачать торрент

Уважаемый гость, на данной странице Вам доступен материал по теме: Мои Ночи Прекраснее Ваших Дней скачать торрент. Скачивание возможно на компьютер и телефон через торрент, а также сервер загрузок по ссылке ниже. Рекомендуем также другие статьи из категории «Торренты».

Мои Ночи Прекраснее Ваших Дней скачать торрент.rar
Закачек 2908
Средняя скорость 7882 Kb/s

Мои Ночи Прекраснее Ваших Дней скачать торрент

Название: Мои ночи прекраснее ваших дней

Оригинальное название: Mes nuits sont plus belles que vos jours

Год выпуска: 1989

Жанр: драма, мелодрама

Перевод: Профессиональный многоголосый, авторский

Видео: MPEG-4 AVC, 2653 Кбит/с, 1024х546, 23,976 кадра/с

Аудио 1: русский, AC3, 192 kbps, 2 ch, 48 kHz [профессиональный многоголосый, Cinema Prestige]

Аудио 2: русский, AC3, 192 kbps, 2 ch, 48 kHz [авторский, Сергей Козлов]

Аудио 3: русский, AC3, 192 kbps, 2 ch, 48 kHz [авторский, Н. Дружинина]

Аудио 4: французский, AC3, 192 kbps, 2 ch, 48 kHz [оригинал]

Уникальный идентификатор : 245544815183451712797985782543097167195 (0xB8BA3612D8DB8EEB97131E218D6A7D5B)

Полное имя : D:VideoМои ночи прекраснее ваших дней.1989.BDRip.AVC.mkv

Версия формата : Version 4 / Version 2

Размер файла : 2,69 Гбайт

Продолжительность : 1 ч. 50 м.

Общий поток : 3490 Кбит/сек

Название фильма : BDRip — STarankov

Дата кодирования : UTC 2015-09-07 09:22:55

Программа кодирования : mkvmerge v8.2.0 (‘World of Adventure’) 64bit

Библиотека кодирования : libebml v1.3.1 + libmatroska v1.4.2

_STATISTICS_WRITING_APP : mkvmerge v8.2.0 (‘World of Adventure’) 64bit

_STATISTICS_WRITING_DATE_UTC : 2015-09-07 09:22:55

_STATISTICS_TAGS : BPS DURATION NUMBER_OF_FRAMES NUMBER_OF_BYTES

Формат/Информация : Advanced Video Codec

Профиль формата : High@L4.1

Параметр CABAC формата : Да

Параметр ReFrames формата : 9 кадров

Идентификатор кодека : V_MPEG4/ISO/AVC

Продолжительность : 1 ч. 50 м.

Битрейт : 2653 Кбит/сек

Ширина : 1024 пикселя

Высота : 546 пикселей

Соотношение сторон : 1,85:1

Режим частоты кадров : Постоянный

Частота кадров : 23,976 кадра/сек

Цветовое пространство : YUV

Субдискретизация насыщенности : 4:2:0

Битовая глубина : 8 бит

Тип развёртки : Прогрессивная

Размер потока : 2,04 Гбайт (76%)

Библиотека кодирования : x264 core 146 r2538 121396c

Настройки программы : cabac=1 / ref=9 / deblock=1:-3:-3 / analyse=0x3:0x113 / me=umh / subme=10 / psy=1 / psy_rd=1.00:0.15 / mixed_ref=1 / me_range=32 / chroma_me=1 / trellis=2 / 8x8dct=1 / cqm=0 / deadzone=21,11 / fast_pskip=1 / chroma_qp_offset=-3 / threads=6 / lookahead_threads=1 / sliced_threads=0 / nr=0 / decimate=1 / interlaced=0 / bluray_compat=0 / constrained_intra=0 / bframes=10 / b_pyramid=2 / b_adapt=2 / b_bias=0 / direct=1 / weightb=1 / open_gop=0 / weightp=2 / keyint=230 / keyint_min=23 / scenecut=40 / intra_refresh=0 / rc_lookahead=40 / rc=crf / mbtree=0 / crf=18.5 / qcomp=0.60 / qpmin=0 / qpmax=69 / qpstep=4 / vbv_maxrate=40000 / vbv_bufsize=50000 / crf_max=0.0 / nal_hrd=none / filler=0 / ip_ratio=1.40 / pb_ratio=1.30 / aq=1:1.00

_STATISTICS_WRITING_APP : mkvmerge v8.2.0 (‘World of Adventure’) 64bit

_STATISTICS_WRITING_DATE_UTC : 2015-09-07 09:22:55

_STATISTICS_TAGS : BPS DURATION NUMBER_OF_FRAMES NUMBER_OF_BYTES

Формат/Информация : Audio Coding 3

Расширение режима : CM (complete main)

Параметр Endianness формата : Big

Идентификатор кодека : A_AC3

Продолжительность : 1 ч. 50 м.

Вид битрейта : Постоянный

Битрейт : 192 Кбит/сек

Каналы : 2 канала

Расположение каналов : Front: L R

Частота : 48,0 КГц

Метод сжатия : С потерями

Размер потока : 151 Мбайт (6%)

Заголовок : MVO (Cinema Prestige)

Формат/Информация : Audio Coding 3

Расширение режима : CM (complete main)

Параметр Endianness формата : Big

Идентификатор кодека : A_AC3

Продолжительность : 1 ч. 50 м.

Вид битрейта : Постоянный

Битрейт : 192 Кбит/сек

Каналы : 2 канала

Расположение каналов : Front: L R

Частота : 48,0 КГц

Метод сжатия : С потерями

Размер потока : 151 Мбайт (6%)

Заголовок : AVO (Сергей Козлов)

Формат/Информация : Audio Coding 3

Расширение режима : CM (complete main)

Параметр Endianness формата : Big

Идентификатор кодека : A_AC3

Продолжительность : 1 ч. 50 м.

Вид битрейта : Постоянный

Битрейт : 192 Кбит/сек

Каналы : 2 канала

Расположение каналов : Front: L R

Частота : 48,0 КГц

Метод сжатия : С потерями

Размер потока : 151 Мбайт (6%)

Заголовок : AVO (Н. Дружинина)

Формат/Информация : Audio Coding 3

Расширение режима : CM (complete main)

Параметр Endianness формата : Big

Идентификатор кодека : A_AC3

Продолжительность : 1 ч. 50 м.

Вид битрейта : Постоянный

Битрейт : 192 Кбит/сек

Каналы : 2 канала

Расположение каналов : Front: L R

Частота : 48,0 КГц

Метод сжатия : С потерями

Размер потока : 151 Мбайт (6%)

Идентификатор кодека : S_TEXT/UTF8

Идентификатор кодека/Информация : UTF-8 Plain Text


Скачать торрент Мои ночи прекраснее ваших дней. На этом данная статья подошла к завершению. Следите за обновлениями на нашем сайте. Получить дополнительную информацию, а также задать свои вопросы можно в комментариях.


Статьи по теме