Скачать через торрент Клеопатра

Уважаемый гость, на данной странице Вам доступен материал по теме: Скачать через торрент Клеопатра. Скачивание возможно на компьютер и телефон через торрент, а также сервер загрузок по ссылке ниже. Рекомендуем также другие статьи из категории «Торренты».

Скачать через торрент Клеопатра.rar
Закачек 1220
Средняя скорость 5079 Kb/s

Скачать через торрент Клеопатра

Год выхода: 1963

Оригинальное название: Cleopatra

Возраст: зрителям, достигшим 12 лет

Продолжительность: 243 мин. / 04:03

Скачать фильм «Клеопатра» через торрент бесплатно

Клеопатра / Cleopatra (1963) DVDRip от MediaClub | КПК .torrent [Информация о файле (нажмите для просмотра)]

Перевод: Дублированный (в местах отсутствия дубляжа — Профессиональный многоголосый)

Кодек: MPEG-4 AVC

Видео: 500 Кбит/с, 480×288, 23.976 кадр/с

Звук: Русский (AAC, 2 ch, 128 Кбит/с)

Клеопатра / Cleopatra (1963) BDRip 720p .torrent [Информация о файле (нажмите для просмотра)]

Перевод: Дублированный (с двухголосыми вставками) + Профессиональный (многоголосый, закадровый) |Blu-ray EUR| + Оригинал

Качество: BDRip 720p (источник: Marchik60 / Blu-ray Remux / 1080p)

Видео: 1280×580 (2.2:1), 5085 Kbps, 23.976 fps, 0.286 bit/pixel

Аудио #1: 48.0 kHz, AC3 Dolby Digital, 2/0 (L,R) ch, 192 kbps [Дубляж, с двухголосыми вставками]

Аудио #2: 48.0 kHz, AC3 Dolby Digital, 3/2 (L,C,R,l,r) + LFE ch, 640 kbps [Многоголосый, Blu-ray EUR]

Аудио #3: 48.0 kHz, AC3 Dolby Digital, 3/2 (L,C,R,l,r) + LFE ch, 640 kbps [Английский]

Субтитры: Русские, английские

Клеопатра / Cleopatra (1963) BDRip 1080p .torrent [Информация о файле (нажмите для просмотра)]

Перевод: Дублированный (с двухголосыми вставками) + Профессиональный (многоголосый, закадровый) |Blu-ray EUR| + Оригинал

Качество: BDRip 1080p (источник: Marchik60 / Blu-ray Remux / 1080p)

Видео: 1920х868 (2.2:1), 9930 Kbps, 23.976 fps, 0.249 bit/pixel

Аудио #1: 48.0 kHz, AC3 Dolby Digital, 2/0 (L,R) ch, 192 kbps [Дубляж, с двухголосыми вставками]

Аудио #2: 48.0 kHz, AC3 Dolby Digital, 3/2 (L,C,R,l,r) + LFE ch, 640 kbps [Многоголосый, Blu-ray EUR]

Аудио #3: 48.0 kHz, AC3 Dolby Digital, 3/2 (L,C,R,l,r) + LFE ch, 640 kbps [Английский]

Субтитры: Русские, английские

Клеопатра / Cleopatra (1963) BDRip 720p от HQ-ViDEO .torrent [Информация о файле (нажмите для просмотра)]

Перевод: Русский профессиональный перевод + Оригинальная дорожка (6ch, 448 kbps, /Отдельно)

Субтитры: Русские, Английские.

Качество: 720p (Исходник: Blu-ray)

Видео: H.264, 1 280 x 576 (2.222); 23.976 fps;

6 228 kbps; 0.345 bit/pixel

Аудио #1: 48 kHz, AC3 Dolby Digital, 3/2 (L,C,R,l,r) + LFE ch,

Аудио #2: 48 kHz, AC3 Dolby Digital, 3/2 (L,C,R,l,r) + LFE ch,

448.00 kbps avg |отдельно

Перевод: Русский профессиональный перевод + Оригинальная дорожка (6ch, 448 kbps, /Отдельно)

Субтитры: Русские, Английские.

Качество: 720p (Исходник: Blu-ray)

Видео: H.264, 1 280 x 576 (2.222); 23.976 fps;

6 126 kbps; 0.339 bit/pixel

Аудио #1: 48 kHz, AC3 Dolby Digital, 3/2 (L,C,R,l,r) + LFE ch,

Аудио #2: 48 kHz, AC3 Dolby Digital, 3/2 (L,C,R,l,r) + LFE ch,

448.00 kbps avg |отдельно

Клеопатра / Cleopatra (1963) Blu-Ray Remux 1080p от Marchik60 .torrent [Информация о файле (нажмите для просмотра)]

Перевод: Русский (DTS, 6 ch, 755 Кбит/с) – Профессиональный многоголосый (BD EUR) Русский (AC3, 2 ch, 192 Кбит/с) – Дублированный (с многоголосыми вставками) Русский (DTS, 6 ch, 1510 Кбит/с) – Профессиональный многоголосый (DVD магия) Русский (DTS, 6 ch, 1510 Кбит/с) – Авторский одноголосый (неизвестный)

Качество: Blu-Ray Remux 1080p

Видео: MPEG-4 AVC, 29.3 Мбит/с, 1920×1080, 23.976 кадр/с

Звук: Русский: (DTS, 6 ch, 1510 Кбит/с), (DTS, 6 ch, 755 Кбит/с), (AC3, 2 ch, 192 Кбит/с) Английский: (DTS-HD MA, 6 ch, 3620 Кбит/с), (AC3, 2 ch, 224 Кбит/с)

Субтитры: Русские (полные, комментарии), английские

Клеопатра / Cleopatra (1963) BDRip-AVC R.G. 25 Кадр .torrent [Информация о файле (нажмите для просмотра)]

Перевод: Закадровый многоголосый

Видео: H.264 / 1046×472 / 3349 Kbps [Film 1] & 3449 [Film 2] / High@L4.1

Аудио: 48 kHz, AC3, 3/2 (L,C,R,l,r) + LFE ch,

448.00 kbps avg — многоголосый (закадровый) 48 kHz, AC3, 3/2 (L,C,R,l,r) + LFE ch,

448.00 kbps avg — оригинал

Субтитры: встроенные русские — srt английские — srt

Видео: Идентификатор : 1 Формат : AVC Формат/Информация : Advanced Video Codec Профиль формата : High@L4.1 Параметр CABAC формата : Да Параметр ReFrames формата : 10 кадров Идентификатор кодека : V_MPEG4/ISO/AVC Продолжительность : 1 ч. 59 м. Битрейт : 3349 Кбит/сек Ширина : 1046 пикселей Высота : 472 пикселя Соотношение сторон : 2,2:1 Частота кадров : 23,976 кадра/сек Цветовое пространство : YUV Субдискретизация насыщенности : 4:2:0 Битовая глубина : 8 бит Тип развёртки : Прогрессивная Бит/(Пиксели*Кадры) : 0.283 Размер потока : 2,73 Гбайт (77%) Библиотека кодирования : x264 core 116 r2074 2641b9e Настройки программы : cabac=1 / ref=10 / deblock=1:-3:-2 / analyse=0x3:0x113 / me=umh / subme=10 / psy=1 / psy_rd=0.95:0.05 / mixed_ref=1 / me_range=32 / chroma_me=1 / trellis=2 / 8x8dct=1 / cqm=0 / deadzone=21,11 / fast_pskip=0 / chroma_qp_offset=-4 / threads=6 / sliced_threads=0 / nr=0 / decimate=1 / interlaced=0 / bluray_compat=0 / constrained_intra=0 / bframes=8 / b_pyramid=2 / b_adapt=1 / b_bias=0 / direct=3 / weightb=1 / open_gop=0 / weightp=2 / keyint=250 / keyint_min=23 / scenecut=40 / intra_refresh=0 / rc_lookahead=50 / rc=2pass / mbtree=1 / bitrate=3349 / ratetol=1.0 / qcomp=0.70 / qpmin=10 / qpmax=51 / qpstep=4 / cplxblur=20.0 / qblur=0.5 / ip_ratio=1.40 / aq=2:1.00 Язык : English Default : Нет Forced : Нет

Аудио #1: Идентификатор : 2 Формат : AC-3 Формат/Информация : Audio Coding 3 Расширение режима : CM (complete main) Идентификатор кодека : A_AC3 Продолжительность : 1 ч. 59 м. Вид битрейта : Постоянный Битрейт : 448 Кбит/сек Каналы : 6 каналов Расположение каналов : Front: L C R, Side: L R, LFE Частота : 48,0 КГц Битовая глубина : 16 бит Метод сжатия : С потерями Размер потока : 383 Мбайт (11%) Заголовок : MVO Язык : Russian Default : Нет Forced : Нет

Аудио #2: Идентификатор : 3 Формат : AC-3 Формат/Информация : Audio Coding 3 Расширение режима : CM (complete main) Идентификатор кодека : A_AC3 Продолжительность : 1 ч. 59 м. Вид битрейта : Постоянный Битрейт : 448 Кбит/сек Каналы : 6 каналов Расположение каналов : Front: L C R, Side: L R, LFE Частота : 48,0 КГц Битовая глубина : 16 бит Метод сжатия : С потерями Размер потока : 383 Мбайт (11%) Заголовок : Original Язык : English Default : Нет Forced : Нет

Видео: Идентификатор : 1 Формат : AVC Формат/Информация : Advanced Video Codec Профиль формата : High@L4.1 Параметр CABAC формата : Да Параметр ReFrames формата : 10 кадров Идентификатор кодека : V_MPEG4/ISO/AVC Продолжительность : 2 ч. 11 м. Битрейт : 3499 Кбит/сек Ширина : 1046 пикселей Высота : 472 пикселя Соотношение сторон : 2,2:1 Частота кадров : 23,976 кадра/сек Цветовое пространство : YUV Субдискретизация насыщенности : 4:2:0 Битовая глубина : 8 бит Тип развёртки : Прогрессивная Бит/(Пиксели*Кадры) : 0.296 Размер потока : 3,14 Гбайт (78%) Библиотека кодирования : x264 core 116 r2074 2641b9e Настройки программы : cabac=1 / ref=10 / deblock=1:-3:-2 / analyse=0x3:0x113 / me=umh / subme=10 / psy=1 / psy_rd=0.95:0.05 / mixed_ref=1 / me_range=32 / chroma_me=1 / trellis=2 / 8x8dct=1 / cqm=0 / deadzone=21,11 / fast_pskip=0 / chroma_qp_offset=-4 / threads=6 / sliced_threads=0 / nr=0 / decimate=1 / interlaced=0 / bluray_compat=0 / constrained_intra=0 / bframes=8 / b_pyramid=2 / b_adapt=1 / b_bias=0 / direct=3 / weightb=1 / open_gop=0 / weightp=2 / keyint=250 / keyint_min=23 / scenecut=40 / intra_refresh=0 / rc_lookahead=50 / rc=2pass / mbtree=1 / bitrate=3499 / ratetol=1.0 / qcomp=0.70 / qpmin=10 / qpmax=51 / qpstep=4 / cplxblur=20.0 / qblur=0.5 / ip_ratio=1.40 / aq=2:1.00 Язык : English Default : Нет Forced : Нет

Аудио #1: Идентификатор : 2 Формат : AC-3 Формат/Информация : Audio Coding 3 Расширение режима : CM (complete main) Идентификатор кодека : A_AC3 Продолжительность : 2 ч. 11 м. Вид битрейта : Постоянный Битрейт : 448 Кбит/сек Каналы : 6 каналов Расположение каналов : Front: L C R, Side: L R, LFE Частота : 48,0 КГц Битовая глубина : 16 бит Метод сжатия : С потерями Размер потока : 422 Мбайт (10%) Заголовок : MVO Язык : Russian Default : Да Forced : Нет

Аудио #2: Идентификатор : 3 Формат : AC-3 Формат/Информация : Audio Coding 3 Расширение режима : CM (complete main) Идентификатор кодека : A_AC3 Продолжительность : 2 ч. 11 м. Вид битрейта : Постоянный Битрейт : 448 Кбит/сек Каналы : 6 каналов Расположение каналов : Front: L C R, Side: L R, LFE Частота : 48,0 КГц Битовая глубина : 16 бит Метод сжатия : С потерями Размер потока : 422 Мбайт (10%) Заголовок : Original Язык : English Default : Нет Forced : Нет


Скачать фильм Клеопатра (1963) через торрент. На этом данная статья подошла к завершению. Следите за обновлениями на нашем сайте. Получить дополнительную информацию, а также задать свои вопросы можно в комментариях.


Статьи по теме