Скачать фильм через торрент Крепость 2

Уважаемый гость, на данной странице Вам доступен материал по теме: Скачать фильм через торрент Крепость 2. Скачивание возможно на компьютер и телефон через торрент, а также сервер загрузок по ссылке ниже. Рекомендуем также другие статьи из категории «Торренты».

Скачать фильм через торрент Крепость 2.rar
Закачек 827
Средняя скорость 7556 Kb/s

Крепость 2: Возвращение

Год выхода: 1999

Режиссер: Джеф Мерфи

Оригинальное название: Fortress 2

Возраст: зрителям, достигшим 16 лет

Продолжительность: 92 мин. / 01:32

Остальные части фильма «Крепость»:

Скачать фильм «Крепость 2: Возвращение» через торрент бесплатно

Крепость 2: Возвращение / Fortress 2 (1999) HDRip от NNM-CLUB | P .torrent [Информация о файле (нажмите для просмотра)]

Перевод: Профессиональный (многоголосый, закадровый)

Видео: MPEG4, XviD, 720×400 (16:9), 23.976 fps, 2 144 Kbps (0.310 bit/pixel)

Аудио: AC-3, 48.0 KHz, 2 ch, 192 Kbps, CBR

Видео: Идентификатор : 0 Формат : MPEG-4 Visual Профиль формата : Advanced Simple@L5 Параметр BVOP формата : 1 Параметр QPel формата : Нет Параметр GMC формата : Без точки перехода Параметр матрицы формата : Выборочная Идентификатор кодека : XVID Идентификатор кодека/Подсказка : XviD Продолжительность : 1 ч. 29 м. Битрейт : 2144 Кбит/сек Ширина : 720 пикселей Высота : 400 пикселей Соотношение сторон : 16:9 Частота кадров : 23,976 кадра/сек Цветовое пространство : YUV Субдискретизация насыщенности : 4:2:0 Битовая глубина : 8 бит Тип развёртки : Прогрессивная Метод сжатия : С потерями Бит/(Пиксели*Кадры) : 0.310 Размер потока : 1,33 Гбайт (91%) Библиотека кодирования : XviD 73

Аудио: Идентификатор : 1 Формат : AC-3 Формат/Информация : Audio Coding 3 Расширение режима : CM (complete main) Параметр Endianness формата : Big Идентификатор кодека : 2000 Продолжительность : 1 ч. 29 м. Вид битрейта : Постоянный Битрейт : 192 Кбит/сек Каналы : 2 канала Расположение каналов : Front: L R Частота : 48,0 КГц Битовая глубина : 16 бит Метод сжатия : С потерями Размер потока : 122 Мбайт (8%) Выравнивание : Разделение по промежуткам Продолжительность промежутка : 42 мс. (1,00 видеокадр) Время предзагрузки промежутка : 500 мс.

Крепость 2: Возвращение / Fortress 2 (2000) BDRip-AVC 1080p | P .torrent [Информация о файле (нажмите для просмотра)]

Перевод: Профессиональный (многоголосый, закадровый)

Кодек: Advanced Video Codec

Качество: BDRip-AVC 1080p

Видео: MPEG-4 AVC, 11.2 Мбит/с, 1920×1070, 23.976 кадр/с

Звук: 48 kHz, ACC, 1536kbps (L,R) 2 channels,

Крепость 2: Возвращение / Fortress 2 (2000) DVDRip | P2 .torrent [Информация о файле (нажмите для просмотра)]

Перевод: Профессиональный (двухголосый закадровый) Garsu Pasaulis

Видео: 704×368 (1.91:1), 25 fps, XviD MPEG-4

1792 kbps avg, 0.28 bit/pixel

Аудио 1: 48 kHz, AC3 Dolby Digital, 2/0 (L,R) ch,

Аудио 2: 48 kHz, AC3 Dolby Digital, 2/0 (L,R) ch,

Крепость 2: Возвращение / Fortress 2 (2000) DVDRip-AVC | P .torrent [Информация о файле (нажмите для просмотра)]

Перевод: Профессиональный (многоголосый, закадровый)

Видео: 704×552@1001×552, 25fps , 1650 kbit


Скачать фильм Крепость 2: Возвращение (1999) через торрент. На этом данная статья подошла к завершению. Следите за обновлениями на нашем сайте. Получить дополнительную информацию, а также задать свои вопросы можно в комментариях.


Статьи по теме