Скачать Сериал Анна Герман Тайна Белого Ангела

Уважаемый гость, на данной странице Вам доступен материал по теме: Скачать Сериал Анна Герман Тайна Белого Ангела. Скачивание возможно на компьютер и телефон через торрент, а также сервер загрузок по ссылке ниже. Рекомендуем также другие статьи из категории «Разное».

Скачать Сериал Анна Герман Тайна Белого Ангела.rar
Закачек 1962
Средняя скорость 7337 Kb/s

Скачать Сериал Анна Герман Тайна Белого Ангела

Год выпуска: 2012

Производство: Россия / Star Media

Жанр: драма, биография

Режиссер: Вальдемар Кшистек, Александр Тименко

Актеры: Йоанна Моро, Мария Порошина, Марат Башаров, Екатерина Васильева, Константин Милованов, Томмазо Раменги, Анна Кирина, Мария Беккер, Игорь Сергеев, Даромир Данил Горденко

1100 kbps, 25.000 fps, 0.157 b/px

Аудио: MP3, 2 ch, 128 kbps, 48 000 Hz [оригинальный (Русский)]

Полное имя : Anna.German.2012.XviD.HDRip.by.GeneralFilmSerija.02.avi

Формат/Информация : Audio Video Interleave

Размер файла : 446 Мбайт

Продолжительность : 50 м.

Общий поток : 1245 Кбит/сек

Программа кодирования : VirtualDubMod 1.5.10.3 | www.virtualdub-fr.org || (build 2550/release)

Библиотека кодирования : VirtualDubMod build 2550/release

Формат : MPEG-4 Visual

Профиль формата : Advanced Simple@L5

Параметр BVOP формата : 1

Параметр QPel формата : Нет

Параметр GMC формата : Без точки перехода

Параметр матрицы формата : Выборочная

Идентификатор кодека : XVID

Идентификатор кодека/Подсказка : XviD

Продолжительность : 50 м.

Битрейт : 1108 Кбит/сек

Ширина : 704 пикселя

Высота : 400 пикселей

Соотношение сторон : 16:9

Частота кадров : 25,000 кадров/сек

Цветовое пространство : YUV

Субдискретизация насыщенности : 4:2:0

Битовая глубина : 8 бит

Тип развёртки : Прогрессивная

Метод сжатия : С потерями

Размер потока : 397 Мбайт (89%)

Библиотека кодирования : XviD 73

Формат : MPEG Audio

Версия формата : Version 1

Профиль формата : Layer 3

Идентификатор кодека : 55

Идентификатор кодека/Подсказка : MP3

Продолжительность : 50 м.

Вид битрейта : Постоянный

Битрейт : 128 Кбит/сек

Каналы : 2 канала

Частота : 48,0 КГц

Метод сжатия : С потерями

Размер потока : 45,8 Мбайт (10%)

Выравнивание : Соединение по промежуткам

Продолжительность промежутка : 40 мс. (1,00 видеокадр)

Время предзагрузки промежутка : 504 мс.

Библиотека кодирования : LAME3.99r

Настройки программы : -m s -V 4 -q 0 -lowpass 17 -b 128


Скачать торрент Анна Герман. На этом данная статья подошла к завершению. Следите за обновлениями на нашем сайте. Получить дополнительную информацию, а также задать свои вопросы можно в комментариях.


Статьи по теме